4K видео на GF 950М

 

СообщениеДобавлено: 07.12.2020 5:30 

возможно ли воспроизведение 4К видео на данной видеокарте – GeForce 950M ?
когда-то читал, что если правильно настроить МРС, то проблем не будет, но инструкции уже, само собой, нет.

 

нормально будет
4к даже встроенка интел 630 обрабатывает норрмально

 

последние версии MPC-HC по умолчанию включают аппаратное декодирование
а в 950М поддерживает аппаратное декодирование h264 в 4к разрешении.

вывести 4к видео сможет в любом случае, но если h264 будет декодироваться видяхой – то всё будет нормально.
а если это будет h265 или vp9 то декодироваться будет на процессоре, а тут будет маловато наверно даже ноутбучного 4 ядерника тех времен когда были актуальны 950м

 

Den5
Купи Андроид приставку для ТВ или современный ТВ и не выноси мозг ни себе, ни нам. Удачи.

 

[UITS]satellit писал(а):
а тут будет маловато наверно даже ноутбучного 4 ядерника тех времен когда были актуальны 950м

Вообще то даже pentium на ядре broadwell нормально круит 4к, в том числе и h 265

 

Den5 На моем ноуте Lenovo-V580c-Спокойно воспроизводит 4к без всякий нюансов.

 

timon55 писал(а):
На моем ноуте Lenovo-V580c

вот зачем бы на ноуте с экраном 1366×768 гонять 4К-видосы :lol:
p.s.
что касается MPC – option ->internal filters -> video decoder -> hardware acceleration -> hardware decoder to use
в.1.7.13 если что

Den5 писал(а):
но инструкции уже, само собой, нет.

да-да, интернет отменили и в гугле забанили

 

Headman писал(а):
Вообще то даже pentium на ядре broadwell нормально круит 4к, в том числе и h 265

его встроенная видяха может декодировать h265, а программно процессор не потянет
10600к на 30% примерно у меня загружен не очень динамичным 4k HEVC видео в софтовом режиме

я хз можно ли декодить видео на встройке процессора, если есть дискретная видяха.
вероятно можно, они же вроде могут отключать дискретную видяшку и переходить на встройку в простое для экономии энергии?

 

Godlike66 [UITS]satellit Headman timon55 если знаете, что мне сделать, чтобы видео воспроизводилось хорошо, напишите, пожалуйста. Я совсем не знаю, какие опции и где мне выставлять.

tor2217 писал(а):
что касается MPC – option ->internal filters -> video decoder -> hardware acceleration -> hardware decoder to use
в.1.7.13 если что

http://joxi.ru/KAgMl19hKxVZVm?d=1

что здесь выставлять? какие галки отмечать? пробовал каждый пункт из выползающего меню, без смены остальных параметров, результата не дало.

tor2217 писал(а):
да-да, интернет отменили и в гугле забанили

если я задал вопрос, значит гугл мне не помог.

 

Den5
на пот плеер переходи, в частности вот хороший мод:
http://nnmclub.to/forum/viewtopic.php?t=1402250
ну и в плеере активируй встроенный dxva кодек (просто нажать на кнопку, по идее по умолчанию даже активирована):
#77

 

Den5 писал(а):
если я задал вопрос, значит гугл мне не помог.

первая же ссыль в гугле ведет в тему на хоботе “4К на ноутбуке i5, gtx950m.”, где все разжевано

Den5 писал(а):
что здесь выставлять? какие галки отмечать? п

у меня так – с каких лет эти настройки, я уже и не помню
#77
на фоне тестовый ролик крутится 4K Cars and Ships 3840×2160

з.ы.
держи вторую ссыль из интернета, который тебе не помог
Как задействовать аппаратное ускорение (HWA) декодирования HD видео с помощью видеокарт AMD и nVidia. (часть 5)
з.з.ы.
dxva checker посмотри

 

tor2217 писал(а):
первая же ссыль в гугле ведет в тему на хоботе “4К на ноутбуке i5, gtx950m.”, где все разжевано

tor2217 писал(а):
держи вторую ссыль из интернета, который тебе не помог

значит я либо не так запрос писал, либо ссылки были другие, ибо искал я все это 4-6 месяцев назад.
поэтому не нужно вот этого язвительного тона – либо помогай, либо оставь другим, кто готов помочь.
за ссылки и скрин спасибо, проверю.

Godlike66
а если их вместе поставить, МРС и Пот друг другу мешать не будут? предустановленными кодеками, например

 

Den5 писал(а):
друг другу мешать не будут?

да не будут. у меня так и стоят)
mph для контекстного меню медиа инфо нужен))))

 

Godlike66 не помог Pot Player
кнопка со скрина была изначально включена, больше ничего не менял. Видео тормозит.

Выложу под спойлер медиа-инфо о файле, может чем поможет

Медиа-инфо

Format : Matroska
Format version : Version 4
File size : 63.1 GiB
Duration : 2 h 10 min
Overall bit rate mode : Variable
Overall bit rate : 69.1 Mb/s
Encoded date : UTC 2019-09-05 12:14:10
Writing application : mkvmerge v37.0.0 (‘Leave It’) 64-bit
Writing library : libebml v1.3.9 + libmatroska v1.5.2
Cover : Yes
Attachments : Cover.jpg

Video
ID : 1
Format : HEVC
Format/Info : High Efficiency Video Coding
Format profile : Main 10@L5.1@High
HDR format : SMPTE ST 2086, HDR10 compatible
Codec ID : V_MPEGH/ISO/HEVC
Duration : 2 h 10 min
Bit rate : 63.2 Mb/s
Width : 3 840 pixels
Height : 2 160 pixels
Display aspect ratio : 16:9
Frame rate mode : Constant
Frame rate : 23.976 (24000/1001) FPS
Color space : YUV
Chroma subsampling : 4:2:0 (Type 2)
Bit depth : 10 bits
Bits/(Pixel*Frame) : 0.318
Stream size : 57.7 GiB (91%)

Default : Yes
Forced : No
Color range : Limited
Color primaries : BT.2020
Transfer characteristics : PQ
Matrix coefficients : BT.2020 non-constant
Mastering display color pri : Display P3
Mastering display luminance : min: 0.0010 cd/m2, max: 1000 cd/m2
Maximum Content Light Level : 1000 cd/m2
Maximum Frame-Average Light : 358 cd/m2

Audio #1
ID : 2
Format : AC-3
Format/Info : Audio Coding 3
Commercial name : Dolby Digital
Codec ID : A_AC3
Duration : 2 h 10 min
Bit rate mode : Constant
Bit rate : 384 kb/s
Channel(s) : 6 channels
Channel layout : L R C LFE Ls Rs
Sampling rate : 48.0 kHz
Frame rate : 31.250 FPS (1536 SPF)
Compression mode : Lossy
Stream size : 359 MiB (1%)
Title : DUB | iTunes
Language : Russian
Service kind : Complete Main
Default : Yes
Forced : No

Audio #2
ID : 3
Format : AC-3
Format/Info : Audio Coding 3
Commercial name : Dolby Digital
Codec ID : A_AC3
Duration : 2 h 10 min
Bit rate mode : Constant
Bit rate : 192 kb/s
Channel(s) : 2 channels
Channel layout : L R
Sampling rate : 48.0 kHz
Frame rate : 31.250 FPS (1536 SPF)
Compression mode : Lossy
Stream size : 180 MiB (0%)
Title : MVO | HDRezka Studio
Language : Russian
Service kind : Complete Main
Default : No
Forced : No

Audio #3
ID : 4
Format : AC-3
Format/Info : Audio Coding 3
Commercial name : Dolby Digital
Codec ID : A_AC3
Duration : 2 h 10 min
Bit rate mode : Constant
Bit rate : 640 kb/s
Channel(s) : 6 channels
Channel layout : L R C LFE Ls Rs
Sampling rate : 48.0 kHz
Frame rate : 31.250 FPS (1536 SPF)
Compression mode : Lossy
Stream size : 599 MiB (1%)
Title : AVO | Д. Есарев
Language : Russian
Service kind : Complete Main
Default : No
Forced : No

Audio #4
ID : 5
Format : MLP FBA 16-ch
Format/Info : Meridian Lossless Packing FBA with 16-channel presentation
Commercial name : Dolby TrueHD with Dolby Atmos
Codec ID : A_TRUEHD
Duration : 2 h 10 min
Bit rate mode : Variable
Bit rate : 4 012 kb/s
Maximum bit rate : 6 327 kb/s
Channel(s) : 8 channels
Channel layout : L R C LFE Ls Rs Lb Rb
Sampling rate : 48.0 kHz
Frame rate : 1 200.000 FPS (40 SPF)
Compression mode : Lossless
Stream size : 3.66 GiB (6%)
Title : Original
Language : English
Default : No
Forced : No
Number of dynamic objects : 15
Bed channel count : 1 channel
Bed channel configuration : LFE

Audio #5
ID : 6
Format : AC-3
Format/Info : Audio Coding 3
Commercial name : Dolby Digital
Codec ID : A_AC3
Duration : 2 h 10 min
Bit rate mode : Constant
Bit rate : 640 kb/s
Channel(s) : 6 channels
Channel layout : L R C LFE Ls Rs
Sampling rate : 48.0 kHz
Frame rate : 31.250 FPS (1536 SPF)
Compression mode : Lossy
Stream size : 599 MiB (1%)
Title : Original
Language : English
Service kind : Complete Main
Default : No
Forced : No

Text #1
ID : 7
Format : UTF-8
Codec ID : S_TEXT/UTF8
Codec ID/Info : UTF-8 Plain Text
Duration : 2 h 2 min
Bit rate : 1 b/s
Count of elements : 32
Stream size : 1.03 KiB (0%)
Title : Forced
Language : Russian
Default : Yes
Forced : No

Text #2
ID : 8
Format : UTF-8
Codec ID : S_TEXT/UTF8
Codec ID/Info : UTF-8 Plain Text
Duration : 2 h 1 min
Bit rate : 38 b/s
Count of elements : 761
Stream size : 34.6 KiB (0%)
Title : Full (Focs)
Language : Russian
Default : No
Forced : No

Text #3
ID : 9
Format : UTF-8
Codec ID : S_TEXT/UTF8
Codec ID/Info : UTF-8 Plain Text
Duration : 2 h 2 min
Bit rate : 38 b/s
Count of elements : 797
Stream size : 34.6 KiB (0%)
Title : Full (Enigma)
Language : Russian
Default : No
Forced : No

Text #4
ID : 10
Format : UTF-8
Codec ID : S_TEXT/UTF8
Codec ID/Info : UTF-8 Plain Text
Duration : 1 h 59 min
Bit rate : 24 b/s
Count of elements : 764
Stream size : 21.3 KiB (0%)
Title : Full
Language : English
Default : No
Forced : No

Text #5
ID : 11
Format : UTF-8
Codec ID : S_TEXT/UTF8
Codec ID/Info : UTF-8 Plain Text
Duration : 2 h 0 min
Bit rate : 32 b/s
Count of elements : 1157
Stream size : 28.5 KiB (0%)
Title : SDH
Language : English
Default : No
Forced : No

Text #6
ID : 12
Format : UTF-8
Codec ID : S_TEXT/UTF8
Codec ID/Info : UTF-8 Plain Text
Duration : 2 h 0 min
Bit rate : 51 b/s
Count of elements : 1157
Stream size : 45.5 KiB (0%)
Title : SDH-Colored
Language : English
Default : No
Forced : No

 

Den5 писал(а):
Видео тормозит.

Den5 писал(а):
Codec ID : V_MPEGH/ISO/HEVC

а чего ты хотел?
напоминаю про dxva checker
з.ы.
попробуй указать хотя бы проц, если весь конфиг – это страшная тайна
возможно, у тебе не переключается интеграха на дискретку


з.з.ы.
берешь тестовые ролики и проверяешь – твой вариант h264, если что

 

Den5
мда, 70 мегабит битрейт, ещё и h265 кодек)
нехилый такой видос

 

Godlike66 вот я и думал, что дело в нехилости. Но, так как не разбираюсь, посчитал правиьлным задать вопросы.
скачал что-то там на h.264 кодеке -вроде норм, причем я даже не менял настройки в МРС
Интересно, что скачав видос из ютуба, такой трюк не сработал – лагает в любом случае.
Погуглил, там какой-то VP9
но пока не было времени разбираться, как заставить его работать

 

Den5 писал(а):
но пока не было времени разбираться, как заставить его работать

за полгода времени разобраться так и не нашел? :lol:

Den5 писал(а):
Погуглил,

что там гуглить – на любом ролике в ютубе кликнуть правой кнопкой и выбрать “статистика для сисадминов”
5-я строчка сверху – кодек

Den5 писал(а):
там какой-то VP9

он для тебя такой же как и hevc
прочитай уже спецификации на 950m в любой статье, дерево
или запусти dxva checker – он все поддерживаемые кодеки покажет

 

950M построен на чипе GM107, у которого нет аппаратных декодеров VP8, VP9 и HEVC (H265).
Видео в таких кодеках будут воспроизводится силами центрального процессора, который у вас “не тянет” такое жирное видео. Так что, как посоветовали выше – используйте AVC (H264), поддержка которого у 950M есть.

 

RetainedProfit спасибо, буду впредь обращать внимание)

Добавить комментарий

Ваш адрес email не будет опубликован. Обязательные поля помечены *